Трещина и геморой лечить
Разделы сайта

1, 2  След.

АвторСообщение

STOJAK


ВИА «Ариэль» / Дискография
Жанр: Retro / Rock
Год выпуска диска: 1995-2008
Производитель диска: Россия
Аудио кодек: FLAC
Тип рипа: image+.cue
Битрейт аудио: lossless
Продолжительность: 16 CD
ВСЕ РИПЫ ДИСКОВ СДЕЛАНЫ МНОЮ С ОРИГИНАЛЬНЫХ ДИСКОВ ИЗ МОЕЙ КОЛЛЕКЦИИ

ДИСКОГРАФИЯ

1995 [CD] (Старая пластинка) 1CD

Жанр: Retro
Страна-производитель диска: Австрия
Год издания диска: 1995
Издатель (лейбл): APEX Records Co Ltd
Страна: Россия
Номер по каталогу: AX CD 3-0015
Аудио кодек: FLAC (.flac)
Тип рипа: image+.cue
Битрейт аудио: lossless
Продолжительность: 50:09
Источник: собственный рип
Диск из личной коллекции
Наличие сканов в содержимом раздачи: да
СОДЕРЖАНИЕ :
01. "Зимы и вёсны (Музыка и слова В. Ярушина)"
02. "Маленькая история (Музыка и слова В. Ярушина)"
03. "Отставала лебёдушка (Русская народная песня , обработка В. Ярушина)"
04. "Я на камушке сижу (Русская народная песня , обработка В. Ярушина)"
05. "Старая пластинка (Н. Богословский - Я. Родионов)"
06. "Народное гуляние (В. Ярушин - А. Раскин)"
07. "Алёнушка (Музыка и слова Р. Геппа)"
08. "Скоморошина (В. Ярушин - А. Раскин)"
09. "Как по реченьке гоголюшка плывёт (Русская народная песня , обработка В. Ярушина)"
10. "По полю , полю (Русская народная песня , обработка В. Ярушина)"
11. "Тишина (Музыка и слова Л. Гурова)"
12. "По блюду , блюду серебряному (Русская народная песня , обработка В. Ярушина)"

1995 [CD] (Старая пластинка) 2CD

Жанр: Retro
Страна-производитель диска: Австрия
Год издания диска: 1995
Издатель (лейбл): APEX Records Co Ltd
Страна: Россия
Номер по каталогу: AX CD 3-0015
Аудио кодек: FLAC (.flac)
Тип рипа: image+.cue
Битрейт аудио: lossless
Продолжительность: 54:58
Источник: собственный рип
Диск из личной коллекции
СОДЕРЖАНИЕ :
01. "Порушка - Параня (Русская народная песня , обработка В. Ярушина)"
02. "Храни меня дождь (Р. Гепп - А. Залесский)"
03. "Где ждёт любовь (Музыка и слова А. Богословского)"
04. "Комната смеха (Т. Ефимов - Д. Усманов)"
05. "Захотелось быть (Т. Ефимов - В. Солоухин)"
06. "Благодарствуйте , сударыня (Т. Ефимов - В. Солоухин)"
07. "Расскажу тебе , кума (Русская народная песня , обработка В. Ярушина)"
08. "Баба - Яга (Т. Ефимов - Ю. Мажаров)"
09. "Частушки (А. Румянцев - Слова народные)"
10. "Орган в ночи (Р. Паулс - Д. Авотыня , перевод Л. Азаровой)"
11. "В краю магнолий (А. Морозов - Ю. Марцинкевич)"
12. "На острове Буяне (А. Морозов - Л. Дербенёв)"
13. "Парафраз на тему русской народной песни 'Отдавали молоду' (В. Ярушин)"

1999 [CD] (Зимы и вёсны...)

Жанр: Retro
Страна-производитель диска: Россия
Год издания диска: 1999
Издатель (лейбл):Уралтон
Страна: Россия
Номер по каталогу: URCD - 005
Аудио кодек: FLAC (.flac)
Тип рипа: image+.cue
Битрейт аудио: lossless
Продолжительность: 01:06:12
Источник: собственный рип
Диск из личной коллекции
Наличие сканов в содержимом раздачи: да
СОДЕРЖАНИЕ :
01. "Зимы и вёсны (Музыка и слова В. Ярушина)"
02. "Старая пластинка (Н. Богословский - Я. Родионов)"
03. "Баба - Яга (Т. Ефимов - Ю. Мажаров)"
04. "Как по реченьке гоголюшка плывёт (Русская народная песня , обработка В. Ярушин)"
05. "Захотелось быть (Т. Ефимов - В. Солоухин)"
06. "По полю , полю (Русская народная песня , обработка В. Ярушина)"
07. "Порушка - Параня (Русская народная песня , обработка В. Ярушина)"
08. "На острове Буяне (А. Морозов - Л. Дербенёв)"
09. "Орган в ночи (Р. Паулс - Д. Авотыня , перевод Л. Азаровой)"
10. "В краю магнолий (А. Морозов - Ю. Марцинкевич)"
11. "Отставала лебёдушка (Русская народная песня , обработка В. Ярушина)"
12. "Я на камушке сижу (Русская народная песня , обработка В. Ярушина)"
13. "По блюду , блюду серебряному (Русская народная песня , обработка В. Ярушина)"
14. "Парафраз на тему русской народной песни 'Отдавали молоду' (В. Ярушин)"
15. "Танюша (Ю. Мелехов - С. Есенин)"
16. "Уж вы стары - старики (В. Ярушин - слова народные)"
17. "Ой да головушка моя болела (Русская народная песня , обработка В. Ярушина"

2001 [CD] (Beatles In The Russians)

Жанр: Retro
Страна-производитель диска: Россия
Год издания диска: 2001
Издатель (лейбл):РУССОБИТ
Страна: Россия
Номер по каталогу: -
Аудио кодек: FLAC (.flac)
Тип рипа: image+.cue
Битрейт аудио: lossless
Продолжительность: 40:44
Источник: собственный рип
Диск из личной коллекции
Наличие сканов в содержимом раздачи: да
СОДЕРЖАНИЕ :
01. "Вступление (Lady Madonna)"
02. "Интерлюдия (Girl)"
03. "Послевоенное танго (And I Love Her)"
04. "Лезгинка (With A Little Help From My Friends)"
05. "Песня о друге (Michelle)"
06. "Цыганская рапсодия (Ob-La-Di, Ob-La-Da)"
07. "Вальс подводников Дунайской флотилии (Yellow Submarine)"
08. "Болеро (Baby's In Black)"
09. "Родина слышит (Here Comes The Sun)"
10. "Похмелье (The Fool On The Hill)"
11. "Финал (Hey Jude)"

2001 [CD] (Любимая, но чужая)

Жанр: Retro
Страна-производитель диска: Россия
Год издания диска: 2001
Издатель (лейбл):РУССОБИТ
Страна: Россия
Номер по каталогу: -
Аудио кодек: FLAC (.flac)
Тип рипа: image+.cue
Битрейт аудио: lossless
Продолжительность: 36:15
Источник: собственный рип
Диск из личной коллекции
Наличие сканов в содержимом раздачи: да
СОДЕРЖАНИЕ :
01. "Чужая (Р.Гепп - А.Лукьянов)"
02. "Девушка (О.Стерхов - С.Щипачёв)"
03. "Поезд (музыка и слова С.Шариков)"
04. "Бродяга (С.Шариков - А.Чак)"
05. "Я не могу без тебя (О.Стерхов - Н.Асеев)"
06. "Мужской разговор (Р.Гепп - В.Царьков)"
07. "Оксана (музыка и слова О.Стерхова)"
08. "Любимая,но чужая (О.Стерхов - И.Бунин)"
09. "В гостях (С.Шариков - Ю.Богатенков)"

2001 [CD] (Через майдан)

Жанр: Retro
Страна-производитель диска: Россия
Год издания диска: 2001
Издатель (лейбл):РУССОБИТ
Страна: Россия
Номер по каталогу: -
Аудио кодек: FLAC (.flac)
Тип рипа: image+.cue
Битрейт аудио: lossless
Продолжительность: 01:05:15
Источник: собственный рип
Диск из личной коллекции
Наличие сканов в содержимом раздачи: да
СОДЕРЖАНИЕ :
01. "Светлое прошлое (О.Митяев)"
02. "Я сбежал (О.Митяев)"
03. "Псков (Л.Клячкин)"
04. "Баня (А.Суханов)"
05. "Самая любимая песня (О.Митяев)"
06. "По смоленской дороге (Б.Окуджава)"
07. "Пиратская (Б.Окуджава)"
08. "Чужая война (О.Митяев)"
09. "Губы окоянные (Ю.Ким)"
10. "Переведи меня через майдан (С.Никитин - В.Коротич)"
11. "Бабай Иващенко - Васильев)"
12. "Многоголосье (Ю.Визбор)"
13. "Пирога (А.Киреев)"
14. "Люси (Р.Гепп - Ю.Визбор)"
15. "Остров (О.Митяев)"

2001 [CD] (Шумел камыш)

Жанр: Retro
Страна-производитель диска: Россия
Год издания диска: 2001
Издатель (лейбл):РУССОБИТ
Страна: Россия
Номер по каталогу: -
Аудио кодек: FLAC (.flac)
Тип рипа: image+.cue
Битрейт аудио: lossless
Продолжительность: 58:20
Источник: собственный рип
Диск из личной коллекции
Наличие сканов в содержимом раздачи: да
СОДЕРЖАНИЕ :
01. "Вечор сокол"
02. "Как по морю"
03. "Матушка"
04. "Молодая канарейка"
05. "Чёрный ворон"
06. "Нахлебалася пресного молока"
07. "Марусенька"
08. "Самара - городок"
09. "Однозвучно гремит колокольчик"
10. "Порушка - Параня"
11. "Всё небо тучами покрылось"
12. "Во горушках - ковылушках"
13. "Хас - Булат"
14. "По улице мостовой"
15. "Когда б имел златые горы"
16. "Всю - то я вселенную проехал"
17. "Пчёлочка златая"
18. "Шумел камыш"

2001 [CD] Золотая Коллекция 1CD

Жанр: Retro
Страна-производитель диска: Россия
Год издания диска: 2001
Издатель (лейбл): УРАЛТОН
Страна: Россия
Номер по каталогу: - URCD - 006
Аудио кодек: FLAC (.flac)
Тип рипа: image+.cue
Битрейт аудио: lossless
Продолжительность: 01:14:10
Источник: собственный рип
Диск из личной коллекции
Наличие сканов в содержимом раздачи: да
СОДЕРЖАНИЕ :
01. "Зимы и вёсны (Музыка и слова В. Ярушина)"
02. "Маленькая история (Музыка и слова В. Ярушина)"
03. "Обращение к России (Музыка и слова В. Ярушина)"
04. "Орган в ночи (Р. Паулс - Д. Авотыня , перевод Л. Азаровой)"
05. "Песенка в старинном стиле (Музыка и слова С. Шарикова)"
06. "Тишина (Музыка и слова Л. Гурова)"
07. "Старая пластинка (Н. Богословский - Я. Родионов)"
08. "Где ждёт любовь (Музыка и слова А. Богословского)"
09. "Парафраз на тему русской народной песни 'Отдавали молоду' (В. Ярушин)"
10. "Здравствуй , мама ! (Д. Тухманов - Р. Рождественский)"
11. "Поэма о солнечном городе (Музыка и слова В. Ярушина)"
12. "За окном весна (Музыка и слова Л. Гурова)"
13. "Не ищи меня (С. Краевский - Л. Гуров)"
14. "Водонос (Г. Фрейденфельд - В. Ярушин)"
15. "Одиночество (Р. Паулс - Д. Авотыня , перевод Л. Азаровой)"
16. "Колокола (Р. Паулс - Д. Авотыня , перевод Л. Азаровой)"
17. "Уходишь ты (А. Зацепин - Л. Дербенёв)"

2001 [CD] Золотая Коллекция 2CD

Жанр: Retro
Страна-производитель диска: Россия
Год издания диска: 2001
Издатель (лейбл): УРАЛТОН
Страна: Россия
Номер по каталогу: - URCD - 007
Аудио кодек: FLAC (.flac)
Тип рипа: image+.cue
Битрейт аудио: lossless
Продолжительность: 01:12:56
Источник: собственный рип
Диск из личной коллекции
Наличие сканов в содержимом раздачи: да
СОДЕРЖАНИЕ :
01. "Народное гуляние (В. Ярушин - А. Раскин)"
02. "Алёнушка (Музыка и слова Р. Геппа)"
03. "Скоморошина (В. Ярушин - А. Раскин)"
04. "Частушки (А. Румянцев - Слова народные)"
05. "Отставала лебёдушка (Русская народная песня , обработка В. Ярушина)"
06. "Я на камушке сижу (Русская народная песня , обработка В. Ярушина)"
07. "По блюду , блюду серебряному (Русская народная песня , обработка В. Ярушина)"
08. "Как по реченьке гоголюшка плывёт (Русская народная песня , обработка В. Ярушина)"
09. "Отчего же наша сваха (Русская народная песня , обработка В. Ярушина)"
10. "По полю , полю (Русская народная песня , обработка В. Ярушина)"
11. "Расскажу тебе , кума (Русская народная песня , обработка В. Ярушина)"
12. "В амбар , за мукой (Русская народная песня , обработка В. Ярушина)"
13. "Степь да степь кругом (Русская народная песня , обработка В. Ярушина)"
14. "Уж вы стары - старики (В. Ярушин - слова народные)"
15. "Пчёлочка златая (Русская народная песня , обработка В. Ярушина)"
16. "Дубравушка (В. Ярушин - слова народные)"
17. "Всё небо тучами покрыто (Русская народная песня , обработка В. Ярушина)"
18. "Уж ты , ночка (В. Ярушин - слова народные)"
19. "Вечор , вечор , матушка (Русская народная песня , обработка В. Ярушина)"

2001 [CD] Золотая Коллекция 3CD

Жанр: Retro
Страна-производитель диска: Россия
Год издания диска: 2001
Издатель (лейбл): УРАЛТОН
Страна: Россия
Номер по каталогу: - URCD - 008
Аудио кодек: FLAC (.flac)
Тип рипа: image+.cue
Битрейт аудио: lossless
Продолжительность: 01:16:04
Источник: собственный рип
Диск из личной коллекции
Наличие сканов в содержимом раздачи: да
СОДЕРЖАНИЕ :
01. "На острове Буяне (А. Морозов - Л. Дербенёв)"
02. "На горе , на горенке (Русская народная песня , обработка В. Ярушина)"
03. "Нахлебался пресного молока (Русская народная песня , обработка В. Ярушина)"
04. "Баба Яга (Т. Ефимов - Ю. Мажаров)"
05. "Танюша (Ю. Мелехов - С. Есенин)"
06. "Блоха (Русская народная песня , обработка В. Ярушина)"
07. "Лесной дуэт (Баба Яга - 2) (В. Ярушин - О. Жуков)"
08. "На улице дождик (Русская народная песня , обработка В. Ярушина)"
09. "Ой да головушка моя болела (Русская народная песня , обработка В. Ярушина)"
10. "Баба Яга - 3 (Т. Ефимов - В. Успенский , А. Курляндский)"
11. "Долина - долинушка (Русская народная песня , обработка В. Ярушина)"
12. "Ты могла (В. Ярушин - А. Костерев)"
13. "Четыре бочки (В. Ярушин - С. Кутанин)"
14. "Истина (В. Ярушин - А. Костерев)"
15. "Я лицо твоё не помню (В. Малежик - В. Попков)"
16. "Всё равно тебя люблю я (Т. Ефимов - Д. Усманов)"
17. "Сладкая планета (С. Шариков - С. Кутанин)"
18. "Волки гонят оленя (А. Зацепин - Л. Дербенёв)"
19. "Уж ты , Порушка - Параня (Русская народная песня , обработка В. Ярушина)"

2001 [CD] Золотая Коллекция 4CD

Жанр: Retro
Страна-производитель диска: Россия
Год издания диска: 2001
Издатель (лейбл): УРАЛТОН
Страна: Россия
Номер по каталогу: - URCD - 009
Аудио кодек: FLAC (.flac)
Тип рипа: image+.cue
Битрейт аудио: lossless
Продолжительность: 01:07:49
Источник: собственный рип
Диск из личной коллекции
Наличие сканов в содержимом раздачи: да
СОДЕРЖАНИЕ :
01. "В краю магнолий (А. Морозов - Ю. Марцинкевич)"
02. "Шире круг (Р. Паулс - И. Резник)"
03. "Храни меня , дождь (Р. Гепп - А. Залесский)"
04. "Каждый день - твой (А. Морозов - Л. Дербенёв)"
05. "Комната смеха (Т. Ефимов - Д. Усманов)"
06. "Благодарствуйте , сударыня (Т. Ефимов - В. Солоухин)"
07. "Захотелось быть (Т. Ефимов - В. Солоухин)"
08. "Ты - музыка (С. Шариков - С. Кутанин)"
09. "У моей зазнобы (Музыка и слова Ю. Лозы)"
10. "Не запирай дверей (Ю. Лоза - В. Нуров)"
11. "Дела (Ю. Лоза - Б. Шифрин)"
12. "Заповедные места (Ю. Лоза - А. Жигарев)"
13. "Детские глаза (Ю. Лоза - Ю. Гуреев)"
14. "Вечерний разговор (Ю. Лоза - А. Дидуров)"
15. "Елена (В. Ярушин - Г. Суздалев)"
16. "Ненавижу (В. Ярушин - О. Горьков , В. Пикалин)"
17. "Исповедь (В. Ярушин - А. Афанасенко)"
18. "Южный Урал (В. Ярушин - В. Колтунов)"

2002 [CD] (Дорога длинной в 35...)

Жанр: Retro
Страна-производитель диска: Россия
Год издания диска: 2002
Издатель (лейбл): -
Страна: Россия
Номер по каталогу: -
Аудио кодек: FLAC (.flac)
Тип рипа: image+.cue
Битрейт аудио: lossless
Продолжительность: 01:00:16
Источник: собственный рип
Диск из личной коллекции
Наличие сканов в содержимом раздачи: да
СОДЕРЖАНИЕ :
01. "Орган в ночи (Р.Паулс - Д.Авотыня , пер. Л.Азарова)"
02. "Принцесса (В.Колесников - В.Паршуков)"
03. "По полю - полю (Русская народная песня)"
04. "Ты моя (Музыка и слова Л.Гурова)"
05. "Порушка - Параня (Русская народная песня)"
06. "Храни меня , дождь (Р.Гепп - С.Кутанин)"
07. "Сладкая планета (С.Шариков - С. Кутанин)"
08. "Тишина (Музыка и слова Л.Гурова)"
09. "На острове Буяне (А.Морозов - Л.Дербенёв)"
10. "Уходишь ты (А.Зацепин - Л.Дербенёв)"
11. "Волки (Т.Ефимов - В.Солоухин)"
12. "Скажи,ты счастлив с ней ? (Музыка и слова Л.Гурова)"
13. "Не звони (Музыка и слова Л. Гурова)"
14. "Баба Яга (Т.Ефимов - Ю.Макаров)"
15. "В краю магнолий (А.Морозов - Ю.Марцинкевич)"
16. "Заповедные места (Ю.Лоза - А.Жигарев)"

2005 [CD] (GRAND Collection)

Жанр: Retro
Страна-производитель диска: Россия
Год издания диска: 2005
Издатель (лейбл): Квадро-Диск
Страна: Россия
Номер по каталогу: GCR 161
Аудио кодек: FLAC (.flac)
Тип рипа: image+.cue
Битрейт аудио: lossless
Продолжительность: 01:17:23
Источник: собственный рип
Диск из личной коллекции
СОДЕРЖАНИЕ :
01. "Зимы и вёсны (Музыка и слова В. Ярушина)"
02. "Маленькая история (Музыка и слова В. Ярушина)"
03. "На острове Буяне (А. Морозов - Л. Дербенёв)"
04. "Ух ты Порушка - Параня (Русская народная песня)"
05. "Уходишь ты (А. Зацепин - Л. Дербенёв)"
06. "Комната смеха (Т. Ефимов - Д. Усманов)"
07. "По полю , полю (Русская народная песня)"
08. "Где ждёт любовь (Музыка и слова А. Богословского) "
09. "Частушки (А. Румянцев - Слова народные)"
10. "Расскажу тебе , кума (Русская народная песня , обработка В. Ярушина) "
11. "Старая пластинка (Н. Богословский - Я. Родионов)"
12. "Нахлебался пресного молока (Русская народная песня , обработка В. Ярушина)"
13. "Баба - Яга (Т. Ефимов - Ю. Мажаров)"
14. "Я на камушке сижу (Русская народная песня , обработка В. Ярушина)"
15. "На улице дождик (Русская народная песня , обработка В. Ярушина)"
16. "Долина - долинушка (Русская народная песня , обработка В. Ярушина) "
17. "Лебёдушка (Русская народная песня , обработка В. Ярушина)"
18. "На горе , на горенке (Русская народная песня , обработка В. Ярушина)"
19. "Парафраз на тему русской народной песни 'Отдавали молоду' (В. Ярушин)"

2006 [CD] (Любовное настроение)

Жанр: Retro
Страна-производитель диска: Россия
Год издания диска: 2006
Издатель (лейбл): Фирма грамзаписи "НИКИТИН"
Страна: Россия
Номер по каталогу: ТФН - CD464/06
Аудио кодек: FLAC (.flac)
Тип рипа: image+.cue
Битрейт аудио: lossless
Продолжительность: 01:01:52
Источник: собственный рип
Диск из личной коллекции
СОДЕРЖАНИЕ :
01. "Маленькая история (Музыка и слова В. Ярушина)"
02. "Зимы и вёсны (Музыка и слова В. Ярушина)"
03. "Отставала лебёдушка (Русская народная песня , обработка В. Ярушина)"
04. "Я на камушке сижу (Русская народная песня , обработка В. Ярушина)"
05. "По блюду , блюду серебряному (Русская народная песня , обработка В. Ярушина)"
06. "Как по реченьке гоголюшка плывёт (Русская народная песня , обработка В. Ярушина)"
07. "На горе , на горенке (Русская народная песня , обработка В. Ярушина)"
08. "Нахлебалася пресного молока (Русская народная песня , обработка В. Ярушина"
09. "На Улице Дождик (Русская народная песня , обработка В. Ярушина)"
10. "Долина - долинушка (Русская народная песня , обработка В. Ярушина)"
11. "Блоха (Русская народная песня , обработка В. Ярушина)"
12. "Парафраз на тему русской народной песни 'Отдавали молоду' (В. Ярушин)"
13. "По полю , полю (Русская народная песня , обработка В. Ярушина)"
14. "Расскажу тебе , кума (Русская народная песня , обработка В. Ярушина)"
15. "Уж ты , Порушка - Параня (Русская народная песня , обработка В. Ярушина)"

2008 [CD] Best (Melodija) Россия

Жанр: Retro
Страна-производитель диска: Россия
Год издания диска: 2008
Издатель (лейбл): ФГУП ФИРМА "МЕЛОДИЯ"
Страна: Россия
Номер по каталогу: MEL CD 60 01531
Тип рипа: image+.cue
Битрейт аудио: lossless
Продолжительность: 01:01:31
Источник: собственный рип
Диск из личной коллекции
СОДЕРЖАНИЕ :
01. "Парафраз на тему русской народной песни 'Отдавали молоду' (В. Ярушин) "
02. "Лебёдушка (Русская народная песня , обработка В. Ярушина) "
03. "Я на камушке сижу (Русская народная песня , обработка В. Ярушина)"
04. "На острове Буяне (А. Морозов - Л. Дербенёв)"
05. "Порушка - Параня (Русская народная песня , обработка В. Ярушина)"
06. "Комната смеха (Т. Ефимов - Д. Усманов) "
07. "Шире круг (Р. Паулс - И. Резник) "
08. "В деле любом и каждом (А. Зацепин - Л. Дербенёв) "
09. "Зимы и вёсны (Музыка и слова В. Ярушина)"
10. "Где ждёт любовь (Музыка и слова А. Богословского) "
11. "Любите струны гитар (В. Ярушин - В. Колтунов)"
12. "Тишина (Музыка и слова Л. Гурова)"
13. "Маленькая история (Музыка и слова В. Ярушина)"
14. "Старая пластинка (Н. Богословский - Я. Родионов)"
15. "Орган в ночи (Р. Паулс - Д. Авотыня , перевод Л. Азаровой) "
16. "Частушки (А. Румянцев - Слова народные) "
17. "Скоморошина (В. Ярушин - А. Раскин) "

2008 [CD] Best (Melodija) Украина

Жанр: Retro
Страна-производитель диска: Украина
Год издания диска: 2008
Издатель (лейбл): ТОВ ФИРМА "МЕЛОДИЯ-УКРАИНА"
Страна: Украина
Номер по каталогу: NMCDD0182
Тип рипа: image+.cue
Битрейт аудио: lossless
Продолжительность: 01:12:17
Источник: собственный рип
Диск из личной коллекции
СОДЕРЖАНИЕ :
01. "В краю магнолий (А. Морозов - Ю. Марцинкевич)"
02. "Уходишь ты (А. Зацепин - Л. Дербенёв) "
03. "Нахлебался пресного молока (Русская народная песня , обработка В. Ярушина)"
04. "Старая пластинка (Н. Богословский - Я. Родионов)"
05. "На острове Буяне (А. Морозов - Л. Дербенёв) "
06. "На горе , на горенке (Русская народная песня , обработка В. Ярушина)"
07. "На улице дождик (Русская народная песня , обработка В. Ярушина) "
08. "Танюша (Ю. Мелехов - С. Есенин)"
09. "Блоха (Русская народная песня , обработка В. Ярушина)"
10. "Долина - долинушка (Русская народная песня , обработка В. Ярушина)"
11. "Уж ты , Порушка - Параня (Русская народная песня , обработка В. Ярушина)"
12. "Дети спят (Ю. Саульский - И. Шаферан) "
13. "Ты - музыка (С. Шариков - С. Кутанин) "
14. "Шире круг (Р. Паулс - И. Резник) "
15. "Храни меня дождь (Р. Гепп - А. Залесский) "
16. "Каждый день твой (А. Морозов - Л. Дербенёв)"
17. "Комната смеха (Т. Ефимов - Д. Усманов) "
18. "Благодарствуйте , сударыня (Т. Ефимов - В. Солоухин)"
Доп. информация:

ОТЧЕТЫ ОБ ИЗВЛЕЧЕНИИ

1995 [CD] (Старая пластинка) 1CD

Exact Audio Copy V0.99 prebeta 3 from 28. July 2007
Отчёт EAC об извлечении, выполненном 17. февраля 2010, 18:08
ВИА «АРИЭЛЬ» / "СТАРАЯ ПЛАСТИНКА" CD01
Дисковод: Optiarc DVD RW AD-7190A Adapter: 0 ID: 0
Режим чтения : Достоверность
Использование точного потока : Да
Отключение кэша аудио : Да
Использование указателей C2 : Нет
Коррекция смещения при чтении : 6
Способность читать области Lead-in и Lead-out : Нет
Заполнение пропущенных сэмплов тишиной : Да
Удаление блоков с тишиной в начале и конце : Нет
При вычислениях CRC использовались нулевые сэмплы : Да
Интерфейс : Встроенный Win32-интерфейс для Win NT/2000
Выходной формат : Внутренние WAV-операции
Формат сэмплов : 44.100 Гц; 16 бит; стерео
TOC извлечённого CD
Трек | Старт | Длительность | Начальный сектор | Конечный сектор
---------------------------------------------------------------------
1 | 0:00.30 | 3:09.55 | 30 | 14259
2 | 3:10.10 | 2:53.41 | 14260 | 27275
3 | 6:03.51 | 4:46.35 | 27276 | 48760
4 | 10:50.11 | 3:13.19 | 48761 | 63254
5 | 14:03.30 | 3:19.05 | 63255 | 78184
6 | 17:22.35 | 7:03.61 | 78185 | 109970
7 | 24:26.21 | 4:04.45 | 109971 | 128315
8 | 28:30.66 | 7:17.16 | 128316 | 161106
9 | 35:48.07 | 4:08.26 | 161107 | 179732
10 | 39:56.33 | 2:22.01 | 179733 | 190383
11 | 42:18.34 | 5:18.03 | 190384 | 214236
12 | 47:36.37 | 2:33.27 | 214237 | 225738
Характеристики диапазона извлечения и сообщения об ошибках
Выбранный диапазон
Имя файла D:\ВИА,ГРУППЫ,АНСАМБЛИ\ВИА «АРИЭЛЬ» (Золотая Коллекция ВИА) [LP,CD,EP] lossless\[CD]\1995 [CD] (Старая пластинка) 1CD-2CD\ВИА «АРИЭЛЬ» 1995 1CD\ВИА «АРИЭЛЬ» - СТАРАЯ ПЛАСТИНКА CD01.wav
Пиковый уровень 99.9 %
Качество диапазона 99.9 %
CRC теста 0CD25843
CRC копии 0CD25843
Копирование... OK
Ошибок не произошло
AccurateRip: сводка
Трек 1 точное извлечение (доверие 1) [B2033926]
Трек 2 точное извлечение (доверие 1) [D862071B]
Трек 3 точное извлечение (доверие 1) [2D79FE48]
Трек 4 точное извлечение (доверие 1) [51863744]
Трек 5 точное извлечение (доверие 1) [6E63E3DB]
Трек 6 точное извлечение (доверие 1) [8702083E]
Трек 7 точное извлечение (доверие 1) [6BC14933]
Трек 8 точное извлечение (доверие 1) [A48059FD]
Трек 9 точное извлечение (доверие 1) [117B82C9]
Трек 10 точное извлечение (доверие 1) [0705F835]
Трек 11 точное извлечение (доверие 1) [E578009A]
Трек 12 точное извлечение (доверие 1) [666AA90F]
Все треки извлечены точно
Конец отчёта

1995 [CD] (Старая пластинка) 2CD

Exact Audio Copy V0.99 prebeta 3 from 28. July 2007
Отчёт EAC об извлечении, выполненном 17. февраля 2010, 18:27
ВИА «АРИЭЛЬ» / "СТАРАЯ ПЛАСТИНКА" CD02
Дисковод: Optiarc DVD RW AD-7190A Adapter: 0 ID: 0
Режим чтения : Достоверность
Использование точного потока : Да
Отключение кэша аудио : Да
Использование указателей C2 : Нет
Коррекция смещения при чтении : 6
Способность читать области Lead-in и Lead-out : Нет
Заполнение пропущенных сэмплов тишиной : Да
Удаление блоков с тишиной в начале и конце : Нет
При вычислениях CRC использовались нулевые сэмплы : Да
Интерфейс : Встроенный Win32-интерфейс для Win NT/2000
Выходной формат : Внутренние WAV-операции
Формат сэмплов : 44.100 Гц; 16 бит; стерео
TOC извлечённого CD
Трек | Старт | Длительность | Начальный сектор | Конечный сектор
---------------------------------------------------------------------
1 | 0:00.30 | 3:46.26 | 30 | 17005
2 | 3:46.56 | 4:24.67 | 17006 | 36872
3 | 8:11.48 | 3:56.19 | 36873 | 54591
4 | 12:07.67 | 3:48.54 | 54592 | 71745
5 | 15:56.46 | 3:58.33 | 71746 | 89628
6 | 19:55.04 | 4:06.59 | 89629 | 108137
7 | 24:01.63 | 3:56.46 | 108138 | 125883
8 | 27:58.34 | 2:39.32 | 125884 | 137840
9 | 30:37.66 | 3:13.15 | 137841 | 152330
10 | 33:51.06 | 5:30.44 | 152331 | 177124
11 | 39:21.50 | 3:27.19 | 177125 | 192668
12 | 42:48.69 | 3:52.34 | 192669 | 210102
13 | 46:41.28 | 8:17.15 | 210103 | 247392
Характеристики диапазона извлечения и сообщения об ошибках
Выбранный диапазон
Имя файла D:\ВИА,ГРУППЫ,АНСАМБЛИ\ВИА «АРИЭЛЬ» (Золотая Коллекция ВИА) [LP,CD,EP] lossless\[CD]\1995 [CD] (Старая пластинка) 1CD-2CD\ВИА «АРИЭЛЬ» 1995 2CD\ВИА «АРИЭЛЬ» - СТАРАЯ ПЛАСТИНКА CD02.wav
Пиковый уровень 98.9 %
Качество диапазона 100.0 %
CRC теста 29D194C3
CRC копии 29D194C3
Копирование... OK
Ошибок не произошло
AccurateRip: сводка
Трек 1 точное извлечение (доверие 1) [5B89E976]
Трек 2 точное извлечение (доверие 1) [4A9ACE2E]
Трек 3 точное извлечение (доверие 1) [44AD657F]
Трек 4 точное извлечение (доверие 1) [09904DB4]
Трек 5 точное извлечение (доверие 1) [7DD24865]
Трек 6 точное извлечение (доверие 1) [7B0F8C51]
Трек 7 точное извлечение (доверие 1) [D04141E5]
Трек 8 точное извлечение (доверие 1) [760B0B2D]
Трек 9 точное извлечение (доверие 1) [FB41D983]
Трек 10 точное извлечение (доверие 1) [61061142]
Трек 11 точное извлечение (доверие 1) [C241EAE2]
Трек 12 точное извлечение (доверие 1) [6CB197A6]
Трек 13 точное извлечение (доверие 1) [18FD4910]
Все треки извлечены точно
Конец отчёта

1999 [CD] (Зимы и вёсны...)

Exact Audio Copy V0.99 prebeta 3 from 28. July 2007
Отчёт EAC об извлечении, выполненном 16. февраля 2010, 21:48
ВИА «АРИЭЛЬ» / "ЗИМЫ И ВЁСНЫ..."
Дисковод: Optiarc DVD RW AD-7190A Adapter: 0 ID: 0
Режим чтения : Достоверность
Использование точного потока : Да
Отключение кэша аудио : Да
Использование указателей C2 : Нет
Коррекция смещения при чтении : 6
Способность читать области Lead-in и Lead-out : Нет
Заполнение пропущенных сэмплов тишиной : Да
Удаление блоков с тишиной в начале и конце : Нет
При вычислениях CRC использовались нулевые сэмплы : Да
Интерфейс : Встроенный Win32-интерфейс для Win NT/2000
Выходной формат : Внутренние WAV-операции
Формат сэмплов : 44.100 Гц; 16 бит; стерео
TOC извлечённого CD
Трек | Старт | Длительность | Начальный сектор | Конечный сектор
---------------------------------------------------------------------
1 | 0:00.00 | 3:08.60 | 0 | 14159
2 | 3:08.60 | 3:19.02 | 14160 | 29086
3 | 6:27.62 | 2:40.54 | 29087 | 41140
4 | 9:08.41 | 4:07.09 | 41141 | 59674
5 | 13:15.50 | 3:59.46 | 59675 | 77645
6 | 17:15.21 | 2:24.03 | 77646 | 88448
7 | 19:39.24 | 3:45.69 | 88449 | 105392
8 | 23:25.18 | 3:54.03 | 105393 | 122945
9 | 27:19.21 | 5:32.46 | 122946 | 147891
10 | 32:51.67 | 3:28.20 | 147892 | 163511
11 | 36:20.12 | 4:46.47 | 163512 | 185008
12 | 41:06.59 | 3:15.21 | 185009 | 199654
13 | 44:22.05 | 2:35.29 | 199655 | 211308
14 | 46:57.34 | 8:18.59 | 211309 | 248717
15 | 55:16.18 | 4:42.27 | 248718 | 269894
16 | 59:58.45 | 2:52.36 | 269895 | 282830
17 | 62:51.06 | 3:20.43 | 282831 | 297873
Характеристики диапазона извлечения и сообщения об ошибках
Выбранный диапазон
Имя файла D:\ВИА,ГРУППЫ,АНСАМБЛИ\ВИА «АРИЭЛЬ» (Золотая Коллекция ВИА) [LP,CD,EP] lossless\[CD]\1999 Уралтон [CD] (Зимы и вёсны...)\ВИА «АРИЭЛЬ» - ЗИМЫ И ВЁСНЫ....wav
Пиковый уровень 100.0 %
Качество диапазона 100.0 %
CRC теста FABBB2E9
CRC копии FABBB2E9
Копирование... OK
Ошибок не произошло
AccurateRip: сводка
Трек 1 точное извлечение (доверие 1) [076220AA]
Трек 2 точное извлечение (доверие 1) [BBCDAF6D]
Трек 3 точное извлечение (доверие 1) [F005D4A5]
Трек 4 точное извлечение (доверие 1) [0DE9CD0C]
Трек 5 точное извлечение (доверие 1) [2EF826FA]
Трек 6 точное извлечение (доверие 1) [FA9559B9]
Трек 7 точное извлечение (доверие 1) [D0F5FC4F]
Трек 8 точное извлечение (доверие 1) [4642D60F]
Трек 9 точное извлечение (доверие 1) [7237CE5B]
Трек 10 точное извлечение (доверие 1) [07EDC58A]
Трек 11 точное извлечение (доверие 1) [2D4D4D08]
Трек 12 точное извлечение (доверие 1) [B28BB376]
Трек 13 точное извлечение (доверие 1) [3AB57840]
Трек 14 точное извлечение (доверие 1) [FD439E3F]
Трек 15 точное извлечение (доверие 1) [5B32DE36]
Трек 16 точное извлечение (доверие 1) [56A597FF]
Трек 17 точное извлечение (доверие 1) [32835BFA]
Все треки извлечены точно
Конец отчёта

2001 [CD] (Beatles In The Russians)

Exact Audio Copy V0.99 prebeta 3 from 28. July 2007
Отчёт EAC об извлечении, выполненном 17. февраля 2010, 20:53
ВИА «АРИЭЛЬ» / "Beatles In The Russians"
Дисковод: Optiarc DVD RW AD-7190A Adapter: 0 ID: 0
Режим чтения : Достоверность
Использование точного потока : Да
Отключение кэша аудио : Да
Использование указателей C2 : Нет
Коррекция смещения при чтении : 6
Способность читать области Lead-in и Lead-out : Нет
Заполнение пропущенных сэмплов тишиной : Да
Удаление блоков с тишиной в начале и конце : Нет
При вычислениях CRC использовались нулевые сэмплы : Да
Интерфейс : Встроенный Win32-интерфейс для Win NT/2000
Выходной формат : Внутренние WAV-операции
Формат сэмплов : 44.100 Гц; 16 бит; стерео
TOC извлечённого CD
Трек | Старт | Длительность | Начальный сектор | Конечный сектор
---------------------------------------------------------------------
1 | 0:00.00 | 2:06.15 | 0 | 9464
2 | 2:06.15 | 3:14.65 | 9465 | 24079
3 | 5:21.05 | 3:02.47 | 24080 | 37776
4 | 8:23.52 | 3:37.41 | 37777 | 54092
5 | 12:01.18 | 3:53.56 | 54093 | 71623
6 | 15:54.74 | 4:16.54 | 71624 | 90877
7 | 20:11.53 | 4:05.55 | 90878 | 109307
8 | 24:17.33 | 3:06.22 | 109308 | 123279
9 | 27:23.55 | 4:50.60 | 123280 | 145089
10 | 32:14.40 | 4:24.48 | 145090 | 164937
11 | 36:39.13 | 4:05.08 | 164938 | 183320
Характеристики диапазона извлечения и сообщения об ошибках
Выбранный диапазон
Имя файла D:\ВИА,ГРУППЫ,АНСАМБЛИ\ВИА «АРИЭЛЬ» (Золотая Коллекция ВИА) [LP,CD,EP] lossless\[CD]\2001 [CD] (Beatles In The Russians)\ВИА «АРИЭЛЬ» - Beatles In The Russians.wav
Пиковый уровень 99.6 %
Качество диапазона 100.0 %
CRC теста 4297E23D
CRC копии 4297E23D
Копирование... OK
Ошибок не произошло
AccurateRip: сводка
Трек 1 нет в базе данных
Трек 2 нет в базе данных
Трек 3 нет в базе данных
Трек 4 нет в базе данных
Трек 5 нет в базе данных
Трек 6 нет в базе данных
Трек 7 нет в базе данных
Трек 8 нет в базе данных
Трек 9 нет в базе данных
Трек 10 нет в базе данных
Трек 11 нет в базе данных
Ни одного трека нет в базе AccurateRip
Конец отчёта

2001 [CD] (Любимая, но чужая)

Exact Audio Copy V0.99 prebeta 3 from 28. July 2007
Отчёт EAC об извлечении, выполненном 18. февраля 2010, 19:14
ВИА «АРИЭЛЬ» / "ЛЮБИМАЯ, НО ЧУЖАЯ"
Дисковод: Optiarc DVD RW AD-7190A Adapter: 0 ID: 0
Режим чтения : Достоверность
Использование точного потока : Да
Отключение кэша аудио : Да
Использование указателей C2 : Нет
Коррекция смещения при чтении : 6
Способность читать области Lead-in и Lead-out : Нет
Заполнение пропущенных сэмплов тишиной : Да
Удаление блоков с тишиной в начале и конце : Нет
При вычислениях CRC использовались нулевые сэмплы : Да
Интерфейс : Встроенный Win32-интерфейс для Win NT/2000
Выходной формат : Внутренние WAV-операции
Формат сэмплов : 44.100 Гц; 16 бит; стерео
TOC извлечённого CD
Трек | Старт | Длительность | Начальный сектор | Конечный сектор
---------------------------------------------------------------------
1 | 0:00.00 | 2:41.61 | 0 | 12135
2 | 2:41.61 | 4:16.66 | 12136 | 31401
3 | 6:58.52 | 3:59.59 | 31402 | 49385
4 | 10:58.36 | 4:22.23 | 49386 | 69058
5 | 15:20.59 | 3:29.55 | 69059 | 84788
6 | 18:50.39 | 3:50.65 | 84789 | 102103
7 | 22:41.29 | 5:01.42 | 102104 | 124720
8 | 27:42.71 | 4:29.33 | 124721 | 144928
9 | 32:12.29 | 4:02.19 | 144929 | 163097
Характеристики диапазона извлечения и сообщения об ошибках
Выбранный диапазон
Имя файла D:\ВИА,ГРУППЫ,АНСАМБЛИ\ВИА «АРИЭЛЬ» (Золотая Коллекция ВИА) [LP,CD,EP] lossless\[CD]\2001 [CD] (Любимая, но чужая)\ВИА «АРИЭЛЬ» - ЛЮБИМАЯ, НО ЧУЖАЯ.wav
Пиковый уровень 100.0 %
Качество диапазона 100.0 %
CRC теста 9FF38805
CRC копии 9FF38805
Копирование... OK
Ошибок не произошло
AccurateRip: сводка
Трек 1 нет в базе данных
Трек 2 нет в базе данных
Трек 3 нет в базе данных
Трек 4 нет в базе данных
Трек 5 нет в базе данных
Трек 6 нет в базе данных
Трек 7 нет в базе данных
Трек 8 нет в базе данных
Трек 9 нет в базе данных
Ни одного трека нет в базе AccurateRip
Конец отчёта

2001 [CD] (Через майдан)

Exact Audio Copy V0.99 prebeta 3 from 28. July 2007
Отчёт EAC об извлечении, выполненном 16. февраля 2010, 20:59
ВИА «АРИЭЛЬ» / "ЧЕРЕЗ МАЙДАН"
Дисковод: Optiarc DVD RW AD-7190A Adapter: 0 ID: 0
Режим чтения : Достоверность
Использование точного потока : Да
Отключение кэша аудио : Да
Использование указателей C2 : Нет
Коррекция смещения при чтении : 6
Способность читать области Lead-in и Lead-out : Нет
Заполнение пропущенных сэмплов тишиной : Да
Удаление блоков с тишиной в начале и конце : Нет
При вычислениях CRC использовались нулевые сэмплы : Да
Интерфейс : Встроенный Win32-интерфейс для Win NT/2000
Выходной формат : Внутренние WAV-операции
Формат сэмплов : 44.100 Гц; 16 бит; стерео
TOC извлечённого CD
Трек | Старт | Длительность | Начальный сектор | Конечный сектор
---------------------------------------------------------------------
1 | 0:00.00 | 4:46.54 | 0 | 21503
2 | 4:46.54 | 3:58.15 | 21504 | 39368
3 | 8:44.69 | 5:24.60 | 39369 | 63728
4 | 14:09.54 | 4:27.72 | 63729 | 83825
5 | 18:37.51 | 4:46.57 | 83826 | 105332
6 | 23:24.33 | 5:44.13 | 105333 | 131145
7 | 29:08.46 | 3:29.10 | 131146 | 146830
8 | 32:37.56 | 4:47.17 | 146831 | 168372
9 | 37:24.73 | 2:20.05 | 168373 | 178877
10 | 39:45.03 | 5:12.62 | 178878 | 202339
11 | 44:57.65 | 3:36.03 | 202340 | 218542
12 | 48:33.68 | 3:43.66 | 218543 | 235333
13 | 52:17.59 | 4:26.42 | 235334 | 255325
14 | 56:44.26 | 3:47.01 | 255326 | 272351
15 | 60:31.27 | 4:43.67 | 272352 | 293643
Характеристики диапазона извлечения и сообщения об ошибках
Выбранный диапазон
Имя файла D:\ВИА,ГРУППЫ,АНСАМБЛИ\ВИА «АРИЭЛЬ» (Золотая Коллекция ВИА) [LP,CD,EP] lossless\[CD]\2001 РУССОБИТ [CD] (Через майдан)\ВИА «АРИЭЛЬ» - ЧЕРЕЗ МАЙДАН.wav
Пиковый уровень 100.0 %
Качество диапазона 100.0 %
CRC теста 2823A760
CRC копии 2823A760
Копирование... OK
Ошибок не произошло
AccurateRip: сводка
Трек 1 нет в базе данных
Трек 2 нет в базе данных
Трек 3 нет в базе данных
Трек 4 нет в базе данных
Трек 5 нет в базе данных
Трек 6 нет в базе данных
Трек 7 нет в базе данных
Трек 8 нет в базе данных
Трек 9 нет в базе данных
Трек 10 нет в базе данных
Трек 11 нет в базе данных
Трек 12 нет в базе данных
Трек 13 нет в базе данных
Трек 14 нет в базе данных
Трек 15 нет в базе данных
Ни одного трека нет в базе AccurateRip
Конец отчёта

2001 [CD] (Шумел камыш)

Exact Audio Copy V0.99 prebeta 3 from 28. July 2007
Отчёт EAC об извлечении, выполненном 16. февраля 2010, 22:16
ВИА «АРИЭЛЬ» / "ШУМЕЛ КАМЫШ. РУССКИЕ НАРОДНЫЕ ПЕСНИ"
Дисковод: Optiarc DVD RW AD-7190A Adapter: 0 ID: 0
Режим чтения : Достоверность
Использование точного потока : Да
Отключение кэша аудио : Да
Использование указателей C2 : Нет
Коррекция смещения при чтении : 6
Способность читать области Lead-in и Lead-out : Нет
Заполнение пропущенных сэмплов тишиной : Да
Удаление блоков с тишиной в начале и конце : Нет
При вычислениях CRC использовались нулевые сэмплы : Да
Интерфейс : Встроенный Win32-интерфейс для Win NT/2000
Выходной формат : Внутренние WAV-операции
Формат сэмплов : 44.100 Гц; 16 бит; стерео
TOC извлечённого CD
Трек | Старт | Длительность | Начальный сектор | Конечный сектор
---------------------------------------------------------------------
1 | 0:00.00 | 3:00.39 | 0 | 13538
2 | 3:00.39 | 2:22.68 | 13539 | 24256
3 | 5:23.32 | 4:05.15 | 24257 | 42646
4 | 9:28.47 | 2:46.15 | 42647 | 55111
5 | 12:14.62 | 4:54.67 | 55112 | 77228
6 | 17:09.54 | 2:21.28 | 77229 | 87831
7 | 19:31.07 | 3:22.52 | 87832 | 103033
8 | 22:53.59 | 3:38.40 | 103034 | 119423
9 | 26:32.24 | 4:07.58 | 119424 | 138006
10 | 30:40.07 | 2:05.37 | 138007 | 147418
11 | 32:45.44 | 2:57.20 | 147419 | 160713
12 | 35:42.64 | 2:33.22 | 160714 | 172210
13 | 38:16.11 | 5:02.03 | 172211 | 194863
14 | 43:18.14 | 2:52.68 | 194864 | 207831
15 | 46:11.07 | 2:49.57 | 207832 | 220563
16 | 49:00.64 | 3:03.28 | 220564 | 234316
17 | 52:04.17 | 3:11.66 | 234317 | 248707
18 | 55:16.08 | 3:04.06 | 248708 | 262513
Характеристики диапазона извлечения и сообщения об ошибках
Выбранный диапазон
Имя файла D:\ВИА,ГРУППЫ,АНСАМБЛИ\ВИА «АРИЭЛЬ» (Золотая Коллекция ВИА) [LP,CD,EP] lossless\[CD]\2001 РУССОБИТ [CD] (Шумел камыш)\ВИА «АРИЭЛЬ» - ШУМЕЛ КАМЫШ. РУССКИЕ НАРОДНЫЕ ПЕСНИ.wav
Пиковый уровень 100.0 %
Качество диапазона 100.0 %
CRC теста E3C7AC5C
CRC копии E3C7AC5C
Копирование... OK
Ошибок не произошло
AccurateRip: сводка
Трек 1 нет в базе данных
Трек 2 нет в базе данных
Трек 3 нет в базе данных
Трек 4 нет в базе данных
Трек 5 нет в базе данных
Трек 6 нет в базе данных
Трек 7 нет в базе данных
Трек 8 нет в базе данных
Трек 9 нет в базе данных
Трек 10 нет в базе данных
Трек 11 нет в базе данных
Трек 12 нет в базе данных
Трек 13 нет в базе данных
Трек 14 нет в базе данных
Трек 15 нет в базе данных
Трек 16 нет в базе данных
Трек 17 нет в базе данных
Трек 18 нет в базе данных
Ни одного трека нет в базе AccurateRip
Конец отчёта

2001 Уралтон [CD] Золотая Коллекция 1CD

Exact Audio Copy V0.99 prebeta 3 from 28. July 2007
Отчёт EAC об извлечении, выполненном 17. февраля 2010, 19:00
ВИА «АРИЭЛЬ» / "Золотая Коллекция" CD01
Дисковод: Optiarc DVD RW AD-7190A Adapter: 0 ID: 0
Режим чтения : Достоверность
Использование точного потока : Да
Отключение кэша аудио : Да
Использование указателей C2 : Нет
Коррекция смещения при чтении : 6
Способность читать области Lead-in и Lead-out : Нет
Заполнение пропущенных сэмплов тишиной : Да
Удаление блоков с тишиной в начале и конце : Нет
При вычислениях CRC использовались нулевые сэмплы : Да
Интерфейс : Встроенный Win32-интерфейс для Win NT/2000
Выходной формат : Внутренние WAV-операции
Формат сэмплов : 44.100 Гц; 16 бит; стерео
TOC извлечённого CD
Трек | Старт | Длительность | Начальный сектор | Конечный сектор
---------------------------------------------------------------------
1 | 0:00.00 | 3:07.15 | 0 | 14039
2 | 3:07.15 | 2:49.21 | 14040 | 26735
3 | 5:56.36 | 5:07.36 | 26736 | 49796
4 | 11:03.72 | 5:30.31 | 49797 | 74577
5 | 16:34.28 | 2:12.55 | 74578 | 84532
6 | 18:47.08 | 5:18.01 | 84533 | 108383
7 | 24:05.09 | 3:16.12 | 108384 | 123095
8 | 27:21.21 | 3:55.06 | 123096 | 140726
9 | 31:16.27 | 8:18.25 | 140727 | 178101
10 | 39:34.52 | 3:31.62 | 178102 | 193988
11 | 43:06.39 | 7:00.29 | 193989 | 225517
12 | 50:06.68 | 2:53.34 | 225518 | 238526
13 | 53:00.27 | 3:05.72 | 238527 | 252473
14 | 56:06.24 | 3:34.28 | 252474 | 268551
15 | 59:40.52 | 6:14.32 | 268552 | 296633
16 | 65:55.09 | 3:36.55 | 296634 | 312888
17 | 69:31.64 | 4:37.72 | 312889 | 333735
Характеристики диапазона извлечения и сообщения об ошибках
Выбранный диапазон
Имя файла D:\ВИА,ГРУППЫ,АНСАМБЛИ\ВИА «АРИЭЛЬ» (Золотая Коллекция ВИА) [LP,CD,EP] lossless\[CD]\2001 Уралтон [CD] Золотая Коллекция 1CD-4CD\2001 [1CD]\ВИА «АРИЭЛЬ» - Золотая Коллекция CD01.wav
Пиковый уровень 100.0 %
Качество диапазона 100.0 %
CRC теста 33F96405
CRC копии 33F96405
Копирование... OK
Ошибок не произошло
AccurateRip: сводка
Трек 1 нет в базе данных
Трек 2 нет в базе данных
Трек 3 нет в базе данных
Трек 4 нет в базе данных
Трек 5 нет в базе данных
Трек 6 нет в базе данных
Трек 7 нет в базе данных
Трек 8 нет в базе данных
Трек 9 нет в базе данных
Трек 10 нет в базе данных
Трек 11 нет в базе данных
Трек 12 нет в базе данных
Трек 13 нет в базе данных
Трек 14 нет в базе данных
Трек 15 нет в базе данных
Трек 16 нет в базе данных
Трек 17 нет в базе данных
Ни одного трека нет в базе AccurateRip
Конец отчёта

2001 Уралтон [CD] Золотая Коллекция 2CD

Exact Audio Copy V0.99 prebeta 3 from 28. July 2007
Отчёт EAC об извлечении, выполненном 17. февраля 2010, 19:36
ВИА «АРИЭЛЬ» / "Золотая Коллекция" CD02
Дисковод: Optiarc DVD RW AD-7190A Adapter: 0 ID: 0
Режим чтения : Достоверность
Использование точного потока : Да
Отключение кэша аудио : Да
Использование указателей C2 : Нет
Коррекция смещения при чтении : 6
Способность читать области Lead-in и Lead-out : Нет
Заполнение пропущенных сэмплов тишиной : Да
Удаление блоков с тишиной в начале и конце : Нет
При вычислениях CRC использовались нулевые сэмплы : Да
Интерфейс : Встроенный Win32-интерфейс для Win NT/2000
Выходной формат : Внутренние WAV-операции
Формат сэмплов : 44.100 Гц; 16 бит; стерео
TOC извлечённого CD
Трек | Старт | Длительность | Начальный сектор | Конечный сектор
---------------------------------------------------------------------
1 | 0:00.00 | 7:03.21 | 0 | 31745
2 | 7:03.21 | 4:03.47 | 31746 | 50017
3 | 11:06.68 | 7:16.70 | 50018 | 82787
4 | 18:23.63 | 3:13.70 | 82788 | 97332
5 | 21:37.58 | 4:45.73 | 97333 | 118780
6 | 26:23.56 | 3:12.34 | 118781 | 133214
7 | 29:36.15 | 2:33.54 | 133215 | 144743
8 | 32:09.69 | 4:06.44 | 144744 | 163237
9 | 36:16.38 | 3:24.09 | 163238 | 178546
10 | 39:40.47 | 2:21.00 | 178547 | 189121
11 | 42:01.47 | 3:55.66 | 189122 | 206812
12 | 45:57.38 | 2:14.54 | 206813 | 216916
13 | 48:12.17 | 5:14.30 | 216917 | 240496
14 | 53:26.47 | 2:51.52 | 240497 | 253373
15 | 56:18.24 | 2:00.04 | 253374 | 262377
16 | 58:18.28 | 4:25.14 | 262378 | 282266
17 | 62:43.42 | 4:06.23 | 282267 | 300739
18 | 66:49.65 | 3:13.70 | 300740 | 315284
19 | 70:03.60 | 2:51.62 | 315285 | 328171
Характеристики диапазона извлечения и сообщения об ошибках
Выбранный диапазон
Имя файла D:\ВИА,ГРУППЫ,АНСАМБЛИ\ВИА «АРИЭЛЬ» (Золотая Коллекция ВИА) [LP,CD,EP] lossless\[CD]\2001 Уралтон [CD] Золотая Коллекция 1CD-4CD\2001 [2CD]\ВИА «АРИЭЛЬ» - Золотая Коллекция CD02.wav
Пиковый уровень 100.0 %
Качество диапазона 99.9 %
CRC теста 721A5501
CRC копии 721A5501
Копирование... OK
Ошибок не произошло
AccurateRip: сводка
Трек 1 нет в базе данных
Трек 2 нет в базе данных
Трек 3 нет в базе данных
Трек 4 нет в базе данных
Трек 5 нет в базе данных
Трек 6 нет в базе данных
Трек 7 нет в базе данных
Трек 8 нет в базе данных
Трек 9 нет в базе данных
Трек 10 нет в базе данных
Трек 11 нет в базе данных
Трек 12 нет в базе данных
Трек 13 нет в базе данных
Трек 14 нет в базе данных
Трек 15 нет в базе данных
Трек 16 нет в базе данных
Трек 17 нет в базе данных
Трек 18 нет в базе данных
Трек 19 нет в базе данных
Ни одного трека нет в базе AccurateRip
Конец отчёта

2001 Уралтон [CD] Золотая Коллекция 3CD

Exact Audio Copy V0.99 prebeta 3 from 28. July 2007
Отчёт EAC об извлечении, выполненном 17. февраля 2010, 20:05
ВИА «АРИЭЛЬ» / "Золотая Коллекция" CD03
Дисковод: Optiarc DVD RW AD-7190A Adapter: 0 ID: 0
Режим чтения : Достоверность
Использование точного потока : Да
Отключение кэша аудио : Да
Использование указателей C2 : Нет
Коррекция смещения при чтении : 6
Способность читать области Lead-in и Lead-out : Нет
Заполнение пропущенных сэмплов тишиной : Да
Удаление блоков с тишиной в начале и конце : Нет
При вычислениях CRC использовались нулевые сэмплы : Да
Интерфейс : Встроенный Win32-интерфейс для Win NT/2000
Выходной формат : Внутренние WAV-операции
Формат сэмплов : 44.100 Гц; 16 бит; стерео
TOC извлечённого CD
Трек | Старт | Длительность | Начальный сектор | Конечный сектор
---------------------------------------------------------------------
1 | 0:00.00 | 3:52.15 | 0 | 17414
2 | 3:52.15 | 5:16.13 | 17415 | 41127
3 | 9:08.28 | 2:30.35 | 41128 | 52412
4 | 11:38.63 | 2:40.23 | 52413 | 64435
5 | 14:19.11 | 4:27.23 | 64436 | 84483
6 | 18:46.34 | 3:55.11 | 84484 | 102119
7 | 22:41.45 | 3:41.23 | 102120 | 118717
8 | 26:22.68 | 6:19.61 | 118718 | 147203
9 | 32:42.54 | 3:21.73 | 147204 | 162351
10 | 36:04.52 | 2:58.52 | 162352 | 175753
11 | 39:03.29 | 4:50.40 | 175754 | 197543
12 | 43:53.69 | 3:32.62 | 197544 | 213505
13 | 47:26.56 | 5:41.53 | 213506 | 239133
14 | 53:08.34 | 4:18.35 | 239134 | 258518
15 | 57:26.69 | 2:25.26 | 258519 | 269419
16 | 59:52.20 | 4:23.38 | 269420 | 289182
17 | 64:15.58 | 3:07.39 | 289183 | 303246
18 | 67:23.22 | 4:55.62 | 303247 | 325433
19 | 72:19.09 | 3:45.21 | 325434 | 342329
Характеристики диапазона извлечения и сообщения об ошибках
Выбранный диапазон
Имя файла D:\ВИА,ГРУППЫ,АНСАМБЛИ\ВИА «АРИЭЛЬ» (Золотая Коллекция ВИА) [LP,CD,EP] lossless\[CD]\2001 Уралтон [CD] Золотая Коллекция 1CD-4CD\2001 [3CD]\ВИА «АРИЭЛЬ» - Золотая Коллекция CD03.wav
Пиковый уровень 100.0 %
Качество диапазона 100.0 %
CRC теста AF29E3E2
CRC копии AF29E3E2
Копирование... OK
Ошибок не произошло
AccurateRip: сводка
Трек 1 нет в базе данных
Трек 2 нет в базе данных
Трек 3 нет в базе данных
Трек 4 нет в базе данных
Трек 5 нет в базе данных
Трек 6 нет в базе данных
Трек 7 нет в базе данных
Трек 8 нет в базе данных
Трек 9 нет в базе данных
Трек 10 нет в базе данных
Трек 11 нет в базе данных
Трек 12 нет в базе данных
Трек 13 нет в базе данных
Трек 14 нет в базе данных
Трек 15 нет в базе данных
Трек 16 нет в базе данных
Трек 17 нет в базе данных
Трек 18 нет в базе данных
Трек 19 нет в базе данных
Ни одного трека нет в базе AccurateRip
Конец отчёта

2001 Уралтон [CD] Золотая Коллекция 4CD

Exact Audio Copy V0.99 prebeta 3 from 28. July 2007
Отчёт EAC об извлечении, выполненном 17. февраля 2010, 20:33
ВИА «АРИЭЛЬ» / "Золотая Коллекция" CD04
Дисковод: Optiarc DVD RW AD-7190A Adapter: 0 ID: 0
Режим чтения : Достоверность
Использование точного потока : Да
Отключение кэша аудио : Да
Использование указателей C2 : Нет
Коррекция смещения при чтении : 6
Способность читать области Lead-in и Lead-out : Нет
Заполнение пропущенных сэмплов тишиной : Да
Удаление блоков с тишиной в начале и конце : Нет
При вычислениях CRC использовались нулевые сэмплы : Да
Интерфейс : Встроенный Win32-интерфейс для Win NT/2000
Выходной формат : Внутренние WAV-операции
Формат сэмплов : 44.100 Гц; 16 бит; стерео
TOC извлечённого CD
Трек | Старт | Длительность | Начальный сектор | Конечный сектор
---------------------------------------------------------------------
1 | 0:00.00 | 3:27.13 | 0 | 15537
2 | 3:27.13 | 4:38.06 | 15538 | 36393
3 | 8:05.19 | 4:23.24 | 36394 | 56142
4 | 12:28.43 | 3:34.36 | 56143 | 72228
5 | 16:03.04 | 3:49.66 | 72229 | 89469
6 | 19:52.70 | 4:04.29 | 89470 | 107798
7 | 23:57.24 | 3:58.06 | 107799 | 125654
8 | 27:55.30 | 3:25.48 | 125655 | 141077
9 | 31:21.03 | 3:24.32 | 141078 | 156409
10 | 34:45.35 | 4:18.15 | 156410 | 175774
11 | 39:03.50 | 3:49.04 | 175775 | 192953
12 | 42:52.54 | 3:45.14 | 192954 | 209842
13 | 46:37.68 | 3:19.66 | 209843 | 224833
14 | 49:57.59 | 3:20.18 | 224834 | 239851
15 | 53:18.02 | 2:58.53 | 239852 | 253254
16 | 56:16.55 | 3:42.54 | 253255 | 269958
17 | 59:59.34 | 3:27.67 | 269959 | 285550
18 | 63:27.26 | 4:21.69 | 285551 | 305194
Характеристики диапазона извлечения и сообщения об ошибках
Выбранный диапазон
Имя файла D:\ВИА,ГРУППЫ,АНСАМБЛИ\ВИА «АРИЭЛЬ» (Золотая Коллекция ВИА) [LP,CD,EP] lossless\[CD]\2001 Уралтон [CD] Золотая Коллекция 1CD-4CD\2001 [4CD]\ВИА «АРИЭЛЬ» - Золотая Коллекция CD04.wav
Пиковый уровень 100.0 %
Качество диапазона 100.0 %
CRC теста 1FDC25A9
CRC копии 1FDC25A9
Копирование... OK
Ошибок не произошло
AccurateRip: сводка
Трек 1 нет в базе данных
Трек 2 нет в базе данных
Трек 3 нет в базе данных
Трек 4 нет в базе данных
Трек 5 нет в базе данных
Трек 6 нет в базе данных
Трек 7 нет в базе данных
Трек 8 нет в базе данных
Трек 9 нет в базе данных
Трек 10 нет в базе данных
Трек 11 нет в базе данных
Трек 12 нет в базе данных
Трек 13 нет в базе данных
Трек 14 нет в базе данных
Трек 15 нет в базе данных
Трек 16 нет в базе данных
Трек 17 нет в базе данных
Трек 18 нет в базе данных
Ни одного трека нет в базе AccurateRip
Конец отчёта

2002 [CD] (Дорога длинной в 35...)

Exact Audio Copy V0.99 prebeta 3 from 28. July 2007
Отчёт EAC об извлечении, выполненном 17. февраля 2010, 8:45
ВИА «АРИЭЛЬ» / "ДОРОГА ДЛИННОЙ В 35..."
Дисковод: Optiarc DVD RW AD-7190A Adapter: 0 ID: 0
Режим чтения : Достоверность
Использование точного потока : Да
Отключение кэша аудио : Да
Использование указателей C2 : Нет
Коррекция смещения при чтении : 6
Способность читать области Lead-in и Lead-out : Нет
Заполнение пропущенных сэмплов тишиной : Да
Удаление блоков с тишиной в начале и конце : Нет
При вычислениях CRC использовались нулевые сэмплы : Да
Интерфейс : Встроенный Win32-интерфейс для Win NT/2000
Выходной формат : Внутренние WAV-операции
Формат сэмплов : 44.100 Гц; 16 бит; стерео
TOC извлечённого CD
Трек | Старт | Длительность | Начальный сектор | Конечный сектор
---------------------------------------------------------------------
1 | 0:00.00 | 5:42.03 | 0 | 25652
2 | 5:42.03 | 2:04.20 | 25653 | 34972
3 | 7:46.23 | 2:29.09 | 34973 | 46156
4 | 10:15.32 | 2:47.00 | 46157 | 58681
5 | 13:02.32 | 3:04.10 | 58682 | 72491
6 | 16:06.42 | 4:24.36 | 72492 | 92327
7 | 20:31.03 | 2:49.62 | 92328 | 105064
8 | 23:20.65 | 4:41.31 | 105065 | 126170
9 | 28:02.21 | 3:55.27 | 126171 | 143822
10 | 31:57.48 | 4:22.64 | 143823 | 163536
11 | 36:20.37 | 6:08.72 | 163537 | 191208
12 | 42:29.34 | 4:09.22 | 191209 | 209905
13 | 46:38.56 | 3:05.01 | 209906 | 223781
14 | 49:43.57 | 2:51.12 | 223782 | 236618
15 | 52:34.69 | 3:44.69 | 236619 | 253487
16 | 56:19.63 | 3:55.58 | 253488 | 271170
Характеристики диапазона извлечения и сообщения об ошибках
Выбранный диапазон
Имя файла D:\ВИА,ГРУППЫ,АНСАМБЛИ\ВИА «АРИЭЛЬ» (Золотая Коллекция ВИА) [LP,CD,EP] lossless\[CD]\2002 [CD] (Дорога длинной в 35...)\ВИА «АРИЭЛЬ» - ДОРОГА ДЛИННОЙ В 35....wav
Пиковый уровень 100.0 %
Качество диапазона 100.0 %
CRC теста 22CFB861
CRC копии 22CFB861
Копирование... OK
Ошибок не произошло
AccurateRip: сводка
Трек 1 нет в базе данных
Трек 2 нет в базе данных
Трек 3 нет в базе данных
Трек 4 нет в базе данных
Трек 5 нет в базе данных
Трек 6 нет в базе данных
Трек 7 нет в базе данных
Трек 8 нет в базе данных
Трек 9 нет в базе данных
Трек 10 нет в базе данных
Трек 11 нет в базе данных
Трек 12 нет в базе данных
Трек 13 нет в базе данных
Трек 14 нет в базе данных
Трек 15 нет в базе данных
Трек 16 нет в базе данных
Ни одного трека нет в базе AccurateRip
Конец отчёта

2005 [CD] (GRAND Collection)

Exact Audio Copy V0.99 prebeta 3 from 28. July 2007
Отчёт EAC об извлечении, выполненном 17. февраля 2010, 8:21
ВИА «АРИЭЛЬ» / "GRAND Collection"
Дисковод: Optiarc DVD RW AD-7190A Adapter: 0 ID: 0
Режим чтения : Достоверность
Использование точного потока : Да
Отключение кэша аудио : Да
Использование указателей C2 : Нет
Коррекция смещения при чтении : 6
Способность читать области Lead-in и Lead-out : Нет
Заполнение пропущенных сэмплов тишиной : Да
Удаление блоков с тишиной в начале и конце : Нет
При вычислениях CRC использовались нулевые сэмплы : Да
Интерфейс : Встроенный Win32-интерфейс для Win NT/2000
Выходной формат : Внутренние WAV-операции
Формат сэмплов : 44.100 Гц; 16 бит; стерео
TOC извлечённого CD
Трек | Старт | Длительность | Начальный сектор | Конечный сектор
---------------------------------------------------------------------
1 | 0:00.00 | 3:08.28 | 0 | 14127
2 | 3:08.28 | 3:00.65 | 14128 | 27692
3 | 6:09.18 | 3:51.62 | 27693 | 45079
4 | 10:01.05 | 3:45.11 | 45080 | 61965
5 | 13:46.16 | 4:45.63 | 61966 | 83403
6 | 18:32.04 | 3:49.24 | 83404 | 100602
7 | 22:21.28 | 2:22.22 | 100603 | 111274
8 | 24:43.50 | 3:57.06 | 111275 | 129055
9 | 28:40.56 | 3:13.61 | 129056 | 143591
10 | 31:54.42 | 3:56.40 | 143592 | 161331
11 | 35:51.07 | 3:19.25 | 161332 | 176281
12 | 39:10.32 | 2:31.25 | 176282 | 187631
13 | 41:41.57 | 2:38.21 | 187632 | 199502
14 | 44:20.03 | 3:14.22 | 199503 | 214074
15 | 47:34.25 | 6:29.22 | 214075 | 243271
16 | 54:03.47 | 4:54.27 | 243272 | 265348
17 | 58:57.74 | 4:46.10 | 265349 | 286808
18 | 63:44.09 | 5:22.16 | 286809 | 310974
19 | 69:06.25 | 8:16.69 | 310975 | 348243
Характеристики диапазона извлечения и сообщения об ошибках
Выбранный диапазон
Имя файла D:\ВИА,ГРУППЫ,АНСАМБЛИ\ВИА «АРИЭЛЬ» (Золотая Коллекция ВИА) [LP,CD,EP] lossless\[CD]\2005 GCR 161 [CD] (GRAND Collection)\ВИА «АРИЭЛЬ» - GRAND Collection.wav
Подозрительная позиция 1:16:49
Пиковый уровень 89.1 %
Качество диапазона 99.9 %
CRC теста 662BF755
CRC копии 662BF755
Копирование завершено
Были ошибки
AccurateRip: сводка
Трек 1 точное извлечение (доверие 1) [E13BA6E1]
Трек 2 точное извлечение (доверие 1) [D3155AD8]
Трек 3 точное извлечение (доверие 1) [9815BC49]
Трек 4 точное извлечение (доверие 1) [C6783096]
Трек 5 точное извлечение (доверие 1) [BB499DB7]
Трек 6 точное извлечение (доверие 1) [BAC4ECEF]
Трек 7 точное извлечение (доверие 1) [166C03F5]
Трек 8 точное извлечение (доверие 1) [51F0A8CE]
Трек 9 точное извлечение (доверие 1) [3E3B92DF]
Трек 10 точное извлечение (доверие 1) [C289FA45]
Трек 11 точное извлечение (доверие 1) [92581336]
Трек 12 точное извлечение (доверие 1) [D0230AF8]
Трек 13 точное извлечение (доверие 1) [5BFF7C97]
Трек 14 точное извлечение (доверие 1) [580117C7]
Трек 15 точное извлечение (доверие 1) [D415809F]
Трек 16 точное извлечение (доверие 1) [BD2405B9]
Трек 17 точное извлечение (доверие 1) [2324AF51]
Трек 18 точное извлечение (доверие 1) [57763315]
Трек 19 точное извлечение (доверие 1) [711F8DB8]
Все треки извлечены точно
Конец отчёта

2006 [CD] (Любовное настроение)

Exact Audio Copy V0.99 prebeta 3 from 28. July 2007
Отчёт EAC об извлечении, выполненном 16. февраля 2010, 21:25
ВИА «АРИЭЛЬ» / "ЛЮБОВНОЕ НАСТРОЕНИЕ"
Дисковод: Optiarc DVD RW AD-7190A Adapter: 0 ID: 0
Режим чтения : Достоверность
Использование точного потока : Да
Отключение кэша аудио : Да
Использование указателей C2 : Нет
Коррекция смещения при чтении : 6
Способность читать области Lead-in и Lead-out : Нет
Заполнение пропущенных сэмплов тишиной : Да
Удаление блоков с тишиной в начале и конце : Нет
При вычислениях CRC использовались нулевые сэмплы : Да
Интерфейс : Встроенный Win32-интерфейс для Win NT/2000
Выходной формат : Внутренние WAV-операции
Формат сэмплов : 44.100 Гц; 16 бит; стерео
TOC извлечённого CD
Трек | Старт | Длительность | Начальный сектор | Конечный сектор
---------------------------------------------------------------------
1 | 0:00.00 | 2:51.36 | 0 | 12860
2 | 2:51.36 | 3:07.17 | 12861 | 26902
3 | 5:58.53 | 4:45.10 | 26903 | 48287
4 | 10:43.63 | 3:13.04 | 48288 | 62766
5 | 13:56.67 | 2:33.61 | 62767 | 74302
6 | 16:30.53 | 4:06.36 | 74303 | 92788
7 | 20:37.14 | 5:16.39 | 92789 | 116527
8 | 25:53.53 | 2:31.07 | 116528 | 127859
9 | 28:24.60 | 6:19.57 | 127860 | 156341
10 | 34:44.42 | 4:50.07 | 156342 | 178098
11 | 39:34.49 | 3:55.65 | 178099 | 195788
12 | 43:30.39 | 8:18.72 | 195789 | 233210
13 | 51:49.36 | 2:21.54 | 233211 | 243839
14 | 54:11.15 | 3:57.01 | 243840 | 261615
15 | 58:08.16 | 3:43.64 | 261616 | 278404
Характеристики диапазона извлечения и сообщения об ошибках
Выбранный диапазон
Имя файла D:\ВИА,ГРУППЫ,АНСАМБЛИ\ВИА «АРИЭЛЬ» (Золотая Коллекция ВИА) [LP,CD,EP] lossless\[CD]\2006 ФГ НИКИТИН [CD] (Любовное настроение)\ВИА «АРИЭЛЬ» - ЛЮБОВНОЕ НАСТРОЕНИЕ.wav
Пиковый уровень 100.0 %
Качество диапазона 100.0 %
CRC теста 93DA6637
CRC копии 93DA6637
Копирование... OK
Ошибок не произошло
AccurateRip: сводка
Трек 1 нет в базе данных
Трек 2 нет в базе данных
Трек 3 нет в базе данных
Трек 4 нет в базе данных
Трек 5 нет в базе данных
Трек 6 нет в базе данных
Трек 7 нет в базе данных
Трек 8 нет в базе данных
Трек 9 нет в базе данных
Трек 10 нет в базе данных
Трек 11 нет в базе данных
Трек 12 нет в базе данных
Трек 13 нет в базе данных
Трек 14 нет в базе данных
Трек 15 нет в базе данных
Ни одного трека нет в базе AccurateRip
Конец отчёта

2008 [CD] Best (Melodija) Россия

Exact Audio Copy V0.99 prebeta 3 from 28. July 2007
Отчёт EAC об извлечении, выполненном 10. февраля 2010, 19:24
ВИА «АРИЭЛЬ» / "Best (Melodija) Россия"
Дисковод: Optiarc DVD RW AD-7190A Adapter: 0 ID: 0
Режим чтения : Достоверность
Использование точного потока : Да
Отключение кэша аудио : Да
Использование указателей C2 : Нет
Коррекция смещения при чтении : 6
Способность читать области Lead-in и Lead-out : Нет
Заполнение пропущенных сэмплов тишиной : Да
Удаление блоков с тишиной в начале и конце : Нет
При вычислениях CRC использовались нулевые сэмплы : Да
Интерфейс : Встроенный Win32-интерфейс для Win NT/2000
Выходной формат : Внутренние WAV-операции
Формат сэмплов : 44.100 Гц; 16 бит; стерео
TOC извлечённого CD
Трек | Старт | Длительность | Начальный сектор | Конечный сектор
---------------------------------------------------------------------
1 | 0:01.00 | 5:58.00 | 75 | 26924
2 | 5:59.00 | 4:47.08 | 26925 | 48457
3 | 10:46.08 | 3:15.11 | 48458 | 63093
4 | 14:01.19 | 3:51.00 | 63094 | 80418
5 | 17:52.19 | 3:43.42 | 80419 | 97185
6 | 21:35.61 | 3:49.56 | 97186 | 114416
7 | 25:25.42 | 4:21.66 | 114417 | 134057
8 | 29:47.33 | 3:31.37 | 134058 | 149919
9 | 33:18.70 | 3:08.32 | 149920 | 164051
10 | 36:27.27 | 3:57.47 | 164052 | 181873
11 | 40:24.74 | 2:30.62 | 181874 | 193185
12 | 42:55.61 | 5:18.16 | 193186 | 217051
13 | 48:14.02 | 3:01.36 | 217052 | 230662
14 | 51:15.38 | 3:20.65 | 230663 | 245727
15 | 54:36.28 | 5:29.17 | 245728 | 270419
16 | 60:05.45 | 3:12.66 | 270420 | 284885
17 | 63:18.36 | 7:13.17 | 284886 | 317377
Характеристики диапазона извлечения и сообщения об ошибках
Выбранный диапазон
Имя файла D:\ВИА,ГРУППЫ,АНСАМБЛИ\ВИА «АРИЭЛЬ» (Золотая Коллекция ВИА) [LP,CD,EP] lossless\ВИА АРИЭЛЬ © 2008 [CD] Best (Melodija) Россия\ВИА «АРИЭЛЬ» - Best (Melodija) Россия.wav
Пиковый уровень 100.0 %
Качество диапазона 100.0 %
CRC теста 3C56A9D3
CRC копии 3C56A9D3
Копирование... OK
Ошибок не произошло
AccurateRip: сводка
Трек 1 точное извлечение (доверие 2) [9661FE2D]
Трек 2 точное извлечение (доверие 2) [24B3677F]
Трек 3 точное извлечение (доверие 2) [9CF08A0C]
Трек 4 точное извлечение (доверие 2) [56D3684B]
Трек 5 точное извлечение (доверие 2) [6F80D5E3]
Трек 6 точное извлечение (доверие 2) [AEE443F8]
Трек 7 точное извлечение (доверие 2) [39BE3D34]
Трек 8 точное извлечение (доверие 2) [E320A5C3]
Трек 9 точное извлечение (доверие 2) [A359C5FE]
Трек 10 точное извлечение (доверие 2) [48005E9C]
Трек 11 точное извлечение (доверие 2) [5F29B9BA]
Трек 12 точное извлечение (доверие 2) [436D6D33]
Трек 13 точное извлечение (доверие 2) [89D5E78C]
Трек 14 точное извлечение (доверие 2) [3988C46B]
Трек 15 точное извлечение (доверие 2) [30FD1A72]
Трек 16 точное извлечение (доверие 2) [81A8087C]
Трек 17 точное извлечение (доверие 2) [721727DF]
Все треки извлечены точно
Конец отчёта

2008 [CD] Best (Melodija) Украина

Exact Audio Copy V0.99 prebeta 3 from 28. July 2007
Отчёт EAC об извлечении, выполненном 10. февраля 2010, 18:50
ВИА «АРИЭЛЬ» / "Best (Melodija) Украина"
Дисковод: Optiarc DVD RW AD-7190A Adapter: 0 ID: 0
Режим чтения : Достоверность
Использование точного потока : Да
Отключение кэша аудио : Да
Использование указателей C2 : Нет
Коррекция смещения при чтении : 6
Способность читать области Lead-in и Lead-out : Нет
Заполнение пропущенных сэмплов тишиной : Да
Удаление блоков с тишиной в начале и конце : Нет
При вычислениях CRC использовались нулевые сэмплы : Да
Интерфейс : Встроенный Win32-интерфейс для Win NT/2000
Выходной формат : Внутренние WAV-операции
Формат сэмплов : 44.100 Гц; 16 бит; стерео
TOC извлечённого CD
Трек | Старт | Длительность | Начальный сектор | Конечный сектор
---------------------------------------------------------------------
1 | 0:00.00 | 3:26.73 | 0 | 15522
2 | 3:26.73 | 4:42.65 | 15523 | 36737
3 | 8:09.63 | 2:29.02 | 36738 | 47914
4 | 10:38.65 | 2:43.45 | 47915 | 60184
5 | 13:22.35 | 3:48.45 | 60185 | 77329
6 | 17:11.05 | 5:18.69 | 77330 | 101248
7 | 22:29.74 | 6:25.72 | 101249 | 130195
8 | 28:55.71 | 4:25.09 | 130196 | 150079
9 | 33:21.05 | 3:54.68 | 150080 | 167697
10 | 37:15.73 | 4:50.27 | 167698 | 189474
11 | 42:06.25 | 3:41.21 | 189475 | 206070
12 | 45:47.46 | 3:24.74 | 206071 | 221444
13 | 49:12.45 | 3:23.34 | 221445 | 236703
14 | 52:36.04 | 4:11.35 | 236704 | 255563
15 | 56:47.39 | 4:23.48 | 255564 | 275336
16 | 61:11.12 | 3:14.05 | 275337 | 289891
17 | 64:25.17 | 3:46.68 | 289892 | 306909
18 | 68:12.10 | 4:04.62 | 306910 | 325271
Характеристики диапазона извлечения и сообщения об ошибках
Выбранный диапазон
Имя файла D:\ВИА,ГРУППЫ,АНСАМБЛИ\ВИА «АРИЭЛЬ» (Золотая Коллекция ВИА) [LP,CD,EP] lossless\ВИА АРИЭЛЬ © 2008 [CD] Best (Melodija) Украина\ВИА «АРИЭЛЬ» - Best (Melodija) Украина.wav
Пиковый уровень 100.0 %
Качество диапазона 100.0 %
CRC теста 3DF49E1D
CRC копии 3DF49E1D
Копирование... OK
Ошибок не произошло
AccurateRip: сводка
Трек 1 нет в базе данных
Трек 2 нет в базе данных
Трек 3 нет в базе данных
Трек 4 нет в базе данных
Трек 5 нет в базе данных
Трек 6 нет в базе данных
Трек 7 нет в базе данных
Трек 8 нет в базе данных
Трек 9 нет в базе данных
Трек 10 нет в базе данных
Трек 11 нет в базе данных
Трек 12 нет в базе данных
Трек 13 нет в базе данных
Трек 14 нет в базе данных
Трек 15 нет в базе данных
Трек 16 нет в базе данных
Трек 17 нет в базе данных
Трек 18 нет в базе данных
Ни одного трека нет в базе AccurateRip
Конец отчёта
Download

Сайт не распространяет и не хранит электронные версии произведений, а лишь предоставляет доступ к создаваемому пользователями каталогу ссылок на торрент-файлы, которые содержат только списки хеш-сумм

 

bobsan1959


Огромное спасибо Это просто чудо! Ниский поклон за такой очень большой труд!!!!!!

 

vokla


Так хочется без всяких скрипов и шумов "Утро планеты"... мечты, мечты....
Ой, чуть не забыл, СПАСИБООООО!!!
Почти всё есть, кроме одного Ярушина 2009.
Кстати, есть пара песен в видео собственной съёмки Ярушина 2008 : Баба Яга и ... а вот вторую не помню, поискать надо Если кому надо, то выложу. В личку пишите.

 

marksmus


Спасибо!
Скажите, а где альбом - Каждый день - твой...?
и такой вопрос, а разве альбом Любимая, но чужая выходил официально на компакте?

 

STOJAK


marksmus писал(а):

Спасибо!
Скажите, а где альбом - Каждый день - твой...?
и такой вопрос, а разве альбом Любимая, но чужая выходил официально на компакте?

Любимая,но чужая выходил на CD "РУССОБИТ (смотрите COVERS в этой раздаче) выпускал серию CD Ариэля....а вот Каждый день твой - это винил,ищите чей-нибудь РИП с винила.
Можно включить ,этот альбом в раздачу ,но это на усмотрение модератора раздела..... может быть при расширении дискографии добавлю....в раздачу...
 

Xardaz


STOJAK
для рипов с винила есть свой раздел со своими правилами. в эту раздачу добавлять не нужно.

 

STOJAK


Xardaz писал(а):

STOJAK
для рипов с винила есть свой раздел со своими правилами. в эту раздачу добавлять не нужно.

СОГЛАСЕН !!!!
 

Dikson_alm


огромное спасибо за дискографию и оформление... Творчество земляков люблю с детства - долго искал их наследие... Качество звука - просто исполнение мечты, которая 20 лет назад казалась несбыточной. Еще раз - огромное спасибо

 

oliphan


Огромное СПАСИБО!
Подержите на раздаче подольше, пожалуйста. Кстати, Ярушин написал книгу «Судьба по имени Ариэль» - рекомендую.

 

vokla


oliphan писал(а):

Кстати, Ярушин написал книгу «Судьба по имени Ариэль» - рекомендую.

Кстати, существует документальный фильм с одноимённым названием. И на трэкере он уже есть
 

addminus


Несказанно рад и премного благодарен за эту великолепную музыку земляков.
Будет жемчужина в коллекции.
Только жаль, что из-за трений и разногласий внутри талантливых коллективов,
пострадавшей стороной оказывается и сами музыканты,
а также искусство, культура, поклонники.
"Давайте жить дружно!!!"

 

XPEHOPE3


Перепощу сюда кой-чего кой-откуда:
"Дорогие друзья! Разыскивается аудио запись первого варианта "Русских Картинок". У самих музыкантов её нет. Если кто имеет в наличии, то дайте нам [группе в одной соц. сети] знать! Спасибо!"
"Первая версия так и не была издана.
Отличие в том, что на пластинке на ударных играет Вячеслав Барташов, а первый вариант был записан ранее с Борисом Каплуном на ударных, и, естественно, там должен быть его неповторимый вокал.
К тому же там присутствует композиция "Здравница", которая так и не было записана для пластинки."

 

forinet


Замечательная команда,давно хотел в коллекцию.Автору респект.

 

makswell house


STOJAK
Не подскажете как разбить на отдельные треки альбомы, которые у Вас в Ариэль CD?

 

vokla


Любители Ярушина!!!
Вот ещё положили 2009 год Валерий Ярушин / Дверь без ключа
http://rutracker.org/forum/viewtopic.php?t=3164143
 

STOJAK


Добавлен альбом ВАЛЕРИЙ ЯРУШИН [АРИЭЛЬ] © 2009 [CD] (Дверь без ключа) со сканами
Замените торрент-файл...

 

oijklndkjlsanhjks


Вот интересно, "Облако на нитке" когда-нибудь можно будет послушать в нормальном качестве?

 

sergam14


На диске Best(Melodija) Украина на 4 треке вместо Старой пластинки записана песня Облако на нитке

 

addminus


STOJAK писал(а):

Добавлен альбом ВАЛЕРИЙ ЯРУШИН [АРИЭЛЬ] © 2009 [CD] (Дверь без ключа) со сканами
Замените торрент-файл...

Уважаемый STOJAK
Скачал по вашей рекомендации новый торрент, но вместо того, чтобы к существующей уже
папке (которая скачана и с апреля 2010 года регулярно раздаётся) добавился этот альбом
Валерия Ярушина, у меня началась новая закачка в совершенно другой папке.
Не вижу смысла скачивать всю дискографию заново, если добавился всего лишь один диск.
Что я сделал неправильно и что мне исправить, чтобы скачанные ранее с этой раздачи
альбомы не скачивались снова?
 

STOJAK


addminus писал(а):

STOJAK писал(а):

Добавлен альбом ВАЛЕРИЙ ЯРУШИН [АРИЭЛЬ] © 2009 [CD] (Дверь без ключа) со сканами
Замените торрент-файл...

Уважаемый STOJAK
Скачал по вашей рекомендации новый торрент, но вместо того, чтобы к существующей уже
папке (которая скачана и с апреля 2010 года регулярно раздаётся) добавился этот альбом
Валерия Ярушина, у меня началась новая закачка в совершенно другой папке.
Не вижу смысла скачивать всю дискографию заново, если добавился всего лишь один диск.
Что я сделал неправильно и что мне исправить, чтобы скачанные ранее с этой раздачи
альбомы не скачивались снова?
К большому сожалению - это дискография - это совсем новая редакция ,где почти полностью изменились названия папок,где расположены альбомы.. (изменены названия фотографий альбомов),поэтому настоятельно рекомендую - обратить внимание на название папок торрент-файла .... также исключены из дискографии альбомы Валерия Ярушина по рекомендации админа этой ветки ....
Чтоб не было проблем,удалите предыдущую дискографию....и скачайте её заново...
С уважением STOJAK /
 

Labunskiy


большое спасибо. Но это только часть дискографии этой , не боюсь этого слова,великой группы. У них есть очень хорошие песни и композиции 68-72 годов. Они у меня есть на магнио-лентах. Может быть кто нибудь отцифровал? А так - ещё раз большое спасибо!!!

 

STOJAK


Labunskiy писал(а):

большое спасибо. Но это только часть дискографии этой , не боюсь этого слова,великой группы. У них есть очень хорошие песни и композиции 68-72 годов. Они у меня есть на магнио-лентах. Может быть кто нибудь отцифровал? А так - ещё раз большое спасибо!!!

Попробуйте вежливо пообщаться с профессиональными оцифровщиками (напишите им в личку) с форума в разделе шансон и авторская песня...это обогатит и не даст потерять в дальнейшем большое наследие об этой группе...
Я с удовольствием бы послушал эти записи после оцифровки....заранее благодарен за участие.........в составлении полной дискографии этой группы великой эпохи вокальньно-инструментального 20 века.....
 

Anubis003


Весьма интересная дискография. Для меня здесь самый большой интерес представляет сборник 2008 года, изданный "Мелодия Украина". Этот сброник, в основном, включает в себя песни с третьего и четвёртого виниловых альбомов Ариэля. Третий альбом (впервые на CD в отличном качестве и в СТЕРЕО) представлен целиком (треки 03, 05-11). Четвёртый альбом "Каждый день твой" представлен треками 12-18 из него недостаёт двух композиций (Захотелось быть и Анафема, последняя вообще не выходила на CD). Композиции на остальных трёх треках выходили на разных виниловых сборниках. Трек 04 - здесь ошибочно указано название песни это не "Старая пластинка", а "Облако на нитке" - очень редкая запись, интересна ещё и тем, что впервые она публикуется в СТЕРЕО, даже на виниле она выходила только в МОНО варианте.

 

squirr


На диске Best (Melodija) Украина вместо "Старая пластинка (Н. Богословский - Я. Родионов)" какая-то фигня вставлена...
Не могут братья-славяне не косячить...

 

Anubis003


squirr писал(а):

На диске Best (Melodija) Украина вместо "Старая пластинка (Н. Богословский - Я. Родионов)" какая-то фигня вставлена...
Не могут братья-славяне не косячить...

Не какая-то фигня, а Облако на нитке на стихи М. Пляцковского, композитора не помню - это весьма редкая запись Ариэля, она на виниле только в моно выходила, а здесь в стерео и в отличном качестве. Так, что косяк здесь в надписи в буклете, а не на диске. Эсли бы все "косяки" были такими можно было б только порадоваться.
 

squirr


Anubis003 писал(а):

Облако на нитке

“Облако на нитке” В. Добрынин – М. Пляцковский.
 

Лубенский


Anubis003 - Если бы все "косяки" были такими можно было б только порадоваться.
Полностью с вами согласен,тем более,что эта песня выходила только на миньоне "Ариэля"- в 75г., да на сборниках,типа "С Новым годом". А поёт её Борис Каплун, к стати, мой однополчанин.

 

1deesser


Лубенский писал(а):

Anubis003 - Если бы все "косяки" были такими можно было б только порадоваться.
Полностью с вами согласен,тем более,что эта песня выходила только на миньоне "Ариэля"- в 75г., да на сборниках,типа "С Новым годом". А поёт её Борис Каплун, к стати, мой однополчанин.

В Чебаркуле служили, а в каком полку? Я в 19-м.
 

Лубенский


1deesser
Да я служил в Чебаркуле в химбате, май-ноябрь-76г.Потом в ГСВГ. Я что-то не помню 19 полк, но всё равно рад встретить однополчанина... А к стати, как так сразу догадались?

 

grad.vlad


и я служил в Чебаркуле,1977-1979,очень рад встретить "земель" " ,служил я в саперном,а 19 полк,по моему был напротив,еще помню там был отличный клуб. очень рад встрече ,все собираюсь съездить туда,теперь наверно не так строго,да вот никак не вырвусь
я служил в ЧЕБАРКУЛЕ 77-79 в саперном батальоне,19 й полк был напротив,через платц,еще в 19 м был хороший клуб,по воскресеньям я частенько там бывал, Очень рад ,что встретил "земель" здесь

 

Источник: http://rutracker.org/forum/viewtopic.php?t=2769961

Опубликовал DeeKLONSeR, 28.10.2014, 15:48